The.Accountant.2016.720p.BRrip.HEVC.10bit.PoOlLa

  • Category Movies
  • Type HD
  • Language English
  • Total size 310.8 MB
  • Uploaded By poolla
  • Downloads 629
  • Last checked 4 days ago
  • Date uploaded 1 week ago
  • Seeders 45
  • Leechers 11

The Accountant

CrimeThrillerDrama

As a math savant uncooks the books for a new client, the Treasury Department closes in on his activities and the body count starts to rise.

Infohash : 31F70FCCE3CD02B7847681BFEA0E22B7876DFD42

use .torrent file instead of magnet link for faster download speed

Recommended Players: Smplayer OR klite codec pack


Plot:

Christian Wolff is a math savant with more affinity for numbers than people. Behind the cover of a small-town CPA office, he works as a freelance accountant for some of the world's most dangerous criminal organizations. With the Treasury Department's Crime Enforcement Division, run by Ray King, starting to close in, Christian takes on a legitimate client: a state-of-the-art robotics company where an accounting clerk has discovered a discrepancy involving millions of dollars. But as Christian uncooks the books and gets closer to the truth, it is the body count that starts to rise.

Director: Gavin O'Connor

Click Here For Screenshot

IMDB , TRAILER

Language: English
Subtitles: Download english Subtitle

MediaInfo:


Format : Matroska
File size : 311 MiB
Duration : 2 h 7 min
Overall bit rate : 340 kb/s

Video


Format : HEVC
Bit rate : 287 kb/s
Width : 1 280 pixels
Height : 536 pixels
Display aspect ratio : 2.40:1
Frame rate mode : Constant
Frame rate : 23.976 (24000/1001) FPS
Bit depth : 10 bits
Bits/(Pixel*Frame) : 0.017
Stream size : 263 MiB (85%)
Writing library : x265 2.2+2-bbb13fcb4c45:[Windows][GCC 6.3.0][64 bit] 10bit


Audio


Format : Opus
Bit rate : 50.1 kb/s
Channel(s) : 2 channels
Channel positions : Front: L R
Sampling rate : 48.0 kHz
Stream size : 45.8 MiB (15%)
Language : English

Files:

  • The.Accountant.2016.720p.BRrip.HEVC.10bit.PoOlLa.mkv (310.8 MB)

There are currently no comments. Feel free to leave one :)

Code:

  • udp://tracker.internetwarriors.net:1337
  • udp://explodie.org:6969/announce
  • udp://zer0day.ch:1337/announce
  • udp://tracker.opentrackr.org:1337/announce
  • udp://tracker.leechers-paradise.org:6969/announce
  • http://mgtracker.org:2710/announce
  • udp://tracker.coppersurfer.tk:6969/announce
  • http://tracker.dler.org:6969/announce
  • udp://9.rarbg.com:2710/announce
  • udp://p4p.arenabg.ch:1337/announce